RSS
Musik dan tontonan cerdas untuk anak anda. Semua item bisa di dapat dengan harga 130 ribu saja. Untuk pemesanan silahkan hubungi support[at]doyi.net

Baby Einstein : Language Nursery - Voices from Many Lands



General
Complete name : 26BE_LANGUAGE_NURSERY.avi
Format : AVI
Format/Info : Audio Video Interleave
File size : 449 MiB
Duration : 27mn 30s
Overall bit rate : 2 279 Kbps
Writing application : Lavf51.12.1

Video
Format : xvid
Codec ID : xvid
Duration : 27mn 30s
Bit rate : 2 009 Kbps
Width : 640 pixels
Height : 480 pixels
Display aspect ratio : 4:3
Frame rate : 29.970 fps
Resolution : 24 bits
Bits/(Pixel*Frame) : 0.218
Stream size : 395 MiB (88%)

Audio
ID : 1
Format : MPEG Audio
Format version : Version 1
Format profile : Layer 3
Format settings, Mode : Joint stereo / MS Stereo
Codec ID : 55
Codec ID/Hint : MP3
Duration : 27mn 30s
Bit rate mode : Constant
Bit rate : 256 Kbps
Channel(s) : 2 channels
Sampling rate : 48.0 KHz
Resolution : 16 bits
Stream size : 50.4 MiB (11%)
Alignment : Aligned on interleaves
Interleave, duration : 24 ms (0.72 video frame)
Interleave, preload duration : 24 ms

Baby Einstein : Baby Santa's Music Box




General
Complete name : 25BE_SANTAS_MUSIC_BOX.avi
Format : AVI
Format/Info : Audio Video Interleave
File size : 491 MiB
Duration : 24mn 46s
Overall bit rate : 2 768 Kbps
Writing application : Lavf51.12.1

Video
Format : xvid
Codec ID : xvid
Duration : 24mn 46s
Bit rate : 2 498 Kbps
Width : 640 pixels
Height : 480 pixels
Display aspect ratio : 4:3
Frame rate : 29.970 fps
Resolution : 24 bits
Bits/(Pixel*Frame) : 0.271
Stream size : 443 MiB (90%)

Audio
ID : 1
Format : MPEG Audio
Format version : Version 1
Format profile : Layer 3
Format settings, Mode : Joint stereo / MS Stereo
Codec ID : 55
Codec ID/Hint : MP3
Duration : 24mn 46s
Bit rate mode : Constant
Bit rate : 256 Kbps
Channel(s) : 2 channels
Sampling rate : 48.0 KHz
Resolution : 16 bits
Stream size : 45.4 MiB (9%)
Alignment : Aligned on interleaves
Interleave, duration : 24 ms (0.72 video frame)
Interleave, preload duration : 24 ms

Baby Einstein : Baby Da Vinci - From Head to Toe




General
Complete name : 24BE_BABY_DAVINCI.avi
Format : AVI
Format/Info : Audio Video Interleave
File size : 635 MiB
Duration : 32mn 34s
Overall bit rate : 2 726 Kbps
Writing application : Lavf51.12.1

Video
Format : xvid
Codec ID : xvid
Duration : 32mn 34s
Bit rate : 2 456 Kbps
Width : 640 pixels
Height : 480 pixels
Display aspect ratio : 4:3
Frame rate : 29.970 fps
Resolution : 24 bits
Bits/(Pixel*Frame) : 0.267
Stream size : 572 MiB (90%)

Audio
ID : 1
Format : MPEG Audio
Format version : Version 1
Format profile : Layer 3
Codec ID : 55
Codec ID/Hint : MP3
Duration : 32mn 34s
Bit rate mode : Constant
Bit rate : 256 Kbps
Channel(s) : 2 channels
Sampling rate : 48.0 KHz
Resolution : 16 bits
Stream size : 59.6 MiB (9%)
Alignment : Aligned on interleaves
Interleave, duration : 24 ms (0.72 video frame)
Interleave, preload duration : 24 ms

Baby Einstein : My First Signs - See and Sign with Baby




General
Complete name : 23BE_MY_FIRST_SIGNS.avi
Format : AVI
Format/Info : Audio Video Interleave
File size : 520 MiB
Duration : 26mn 50s
Overall bit rate : 2 709 Kbps
Writing application : Lavf51.12.1

Video
Format : xvid
Codec ID : xvid
Duration : 26mn 50s
Bit rate : 2 439 Kbps
Width : 640 pixels
Height : 480 pixels
Display aspect ratio : 4:3
Frame rate : 29.970 fps
Resolution : 24 bits
Bits/(Pixel*Frame) : 0.265
Stream size : 468 MiB (90%)

Audio
ID : 1
Format : MPEG Audio
Format version : Version 1
Format profile : Layer 3
Format settings, Mode : Joint stereo / MS Stereo
Codec ID : 55
Codec ID/Hint : MP3
Duration : 26mn 50s
Bit rate mode : Constant
Bit rate : 256 Kbps
Channel(s) : 2 channels
Sampling rate : 48.0 KHz
Resolution : 16 bits
Stream size : 49.1 MiB (9%)
Alignment : Aligned on interleaves
Interleave, duration : 24 ms (0.72 video frame)
Interleave, preload duration : 24 ms

Baby Einstein : Baby Van Gogh - World of Colors




General
Complete name : 22BE_BABY_VANGOGH.avi
Format : AVI
Format/Info : Audio Video Interleave
File size : 470 MiB
Duration : 23mn 53s
Overall bit rate : 2 752 Kbps
Writing application : Lavf51.12.1

Video
Format : xvid
Codec ID : xvid
Duration : 23mn 53s
Bit rate : 2 482 Kbps
Width : 640 pixels
Height : 480 pixels
Display aspect ratio : 4:3
Frame rate : 29.970 fps
Resolution : 24 bits
Bits/(Pixel*Frame) : 0.270
Stream size : 424 MiB (90%)

Audio
ID : 1
Format : MPEG Audio
Format version : Version 1
Format profile : Layer 3
Format settings, Mode : Joint stereo / MS Stereo
Codec ID : 55
Codec ID/Hint : MP3
Duration : 23mn 53s
Bit rate mode : Constant
Bit rate : 256 Kbps
Channel(s) : 2 channels
Sampling rate : 48.0 KHz
Resolution : 16 bits
Stream size : 43.7 MiB (9%)
Alignment : Aligned on interleaves
Interleave, duration : 24 ms (0.72 video frame)
Interleave, preload duration : 24 ms
Writing library : LAME3.97

Baby Einstein : World Animals - A Musical Safari



General
Complete name : 21BE_WORLD_ANIMALS.avi
Format : AVI
Format/Info : Audio Video Interleave
File size : 489 MiB
Duration : 25mn 12s
Overall bit rate : 2 712 Kbps
Writing application : Lavf51.12.1

Video
Format : xvid
Codec ID : xvid
Duration : 25mn 12s
Bit rate : 2 442 Kbps
Width : 640 pixels
Height : 480 pixels
Display aspect ratio : 4:3
Frame rate : 29.970 fps
Resolution : 24 bits
Bits/(Pixel*Frame) : 0.265
Stream size : 440 MiB (90%)

Audio
ID : 1
Format : MPEG Audio
Format version : Version 1
Format profile : Layer 3
Codec ID : 55
Codec ID/Hint : MP3
Duration : 25mn 12s
Bit rate mode : Constant
Bit rate : 256 Kbps
Channel(s) : 2 channels
Sampling rate : 48.0 KHz
Resolution : 16 bits
Stream size : 46.1 MiB (9%)
Alignment : Aligned on interleaves
Interleave, duration : 24 ms (0.72 video frame)
Interleave, preload duration : 24 ms

Baby Einstein : Lullaby Time - Soothing Sounds for Baby




General
Complete name : 20BE_LULLABY_TIME.avi
Format : AVI
Format/Info : Audio Video Interleave
File size : 588 MiB
Duration : 30mn 58s
Overall bit rate : 2 656 Kbps
Writing application : Lavf51.12.1

Video
Format : xvid
Codec ID : xvid
Duration : 30mn 58s
Bit rate : 2 387 Kbps
Width : 640 pixels
Height : 480 pixels
Display aspect ratio : 4:3
Frame rate : 29.970 fps
Resolution : 24 bits
Bits/(Pixel*Frame) : 0.259
Stream size : 529 MiB (90%)

Audio
ID : 1
Format : MPEG Audio
Format version : Version 1
Format profile : Layer 3
Format settings, Mode : Joint stereo / MS Stereo
Codec ID : 55
Codec ID/Hint : MP3
Duration : 30mn 58s
Bit rate mode : Constant
Bit rate : 256 Kbps
Channel(s) : 2 channels
Sampling rate : 48.0 KHz
Resolution : 16 bits
Stream size : 56.7 MiB (10%)
Alignment : Aligned on interleaves
Interleave, duration : 24 ms (0.72 video frame)
Interleave, preload duration : 24 ms

Baby Einstein : On the Go - Riding, Sailing and Soaring




General
Complete name : 19BE_ON_THE_GO.avi
Format : AVI
Format/Info : Audio Video Interleave
File size : 772 MiB
Duration : 39mn 49s
Overall bit rate : 2 709 Kbps
Writing application : Lavf51.12.1

Video
Format : xvid
Codec ID : xvid
Duration : 39mn 49s
Bit rate : 2 439 Kbps
Width : 640 pixels
Height : 480 pixels
Display aspect ratio : 4:3
Frame rate : 29.970 fps
Resolution : 24 bits
Bits/(Pixel*Frame) : 0.265
Stream size : 695 MiB (90%)

Audio
ID : 1
Format : MPEG Audio
Format version : Version 1
Format profile : Layer 3
Format settings, Mode : Joint stereo / MS Stereo
Codec ID : 55
Codec ID/Hint : MP3
Duration : 39mn 49s
Bit rate mode : Constant
Bit rate : 256 Kbps
Channel(s) : 2 channels
Sampling rate : 48.0 KHz
Resolution : 16 bits
Stream size : 72.9 MiB (9%)
Alignment : Aligned on interleaves
Interleave, duration : 24 ms (0.72 video frame)
Interleave, preload duration : 24 ms
Writing library : LAME3.97

Baby Einstein : Baby Galileo - Discovering the Sky




General
Complete name : 18BE_GALILEO.avi
Format : AVI
Format/Info : Audio Video Interleave
File size : 547 MiB
Duration : 28mn 7s
Overall bit rate : 2 718 Kbps
Writing application : Lavf51.12.1

Video
Format : xvid
Codec ID : xvid
Duration : 28mn 7s
Bit rate : 2 450 Kbps
Width : 640 pixels
Height : 480 pixels
Display aspect ratio : 4:3
Frame rate : 23.976 fps
Resolution : 24 bits
Bits/(Pixel*Frame) : 0.333
Stream size : 493 MiB (90%)

Audio
ID : 1
Format : MPEG Audio
Format version : Version 1
Format profile : Layer 3
Format settings, Mode : Joint stereo / MS Stereo
Codec ID : 55
Codec ID/Hint : MP3
Duration : 28mn 7s
Bit rate mode : Constant
Bit rate : 256 Kbps
Channel(s) : 2 channels
Sampling rate : 48.0 KHz
Resolution : 16 bits
Stream size : 51.5 MiB (9%)
Alignment : Aligned on interleaves
Interleave, duration : 24 ms (0.58 video frame)
Interleave, preload duration : 24 ms
Writing library : LAME3.97

Baby Einstein : Baby Beethoven - Symphony of Fun



General
Complete name : 17BE_BEETHOVEN.avi
Format : AVI
Format/Info : Audio Video Interleave
File size : 541 MiB
Duration : 27mn 59s
Overall bit rate : 2 701 Kbps
Writing application : Lavf51.12.1

Video
Format : xvid
Codec ID : xvid
Duration : 27mn 59s
Bit rate : 2 431 Kbps
Width : 640 pixels
Height : 480 pixels
Display aspect ratio : 4:3
Frame rate : 29.970 fps
Resolution : 24 bits
Bits/(Pixel*Frame) : 0.264
Stream size : 487 MiB (90%)

Audio
ID : 1
Format : MPEG Audio
Format version : Version 1
Format profile : Layer 3
Format settings, Mode : Joint stereo / MS Stereo
Codec ID : 55
Codec ID/Hint : MP3
Duration : 27mn 59s
Bit rate mode : Constant
Bit rate : 256 Kbps
Channel(s) : 2 channels
Sampling rate : 48.0 KHz
Resolution : 16 bits
Stream size : 51.3 MiB (9%)
Alignment : Aligned on interleaves
Interleave, duration : 24 ms (0.72 video frame)
Interleave, preload duration : 24 ms
 
Copyright 2009 Anak Jenius Powered by Rapidshare Search Engine
Templates created by Deluxe Templates
Content by Free Software Search Engine